Mowgli (2018) 720p NF WEB DL Dual Audio ORG [Hindi DDP5 1 + English DD5 1] MSubs [Saransh] torrent download

seeders: 149
leechers: 304
updated:
Added ago by Saransh ***** in Movies
Torrent Downloaded 10 times.
Info Hash: 6677AACC57008262F25F2399DA3DB2B088562307


Torrent Files

Mowgli (2018) 720p NF WEB-DL Dual Audio ORG [Hindi DDP5 1 + English DD5 1] MSubs [Saransh] (Size: 1.5 GB)
  Mowgli (2018) 720p NF WEB-DL Dual Audio ORG [Hindi DDP5 1 + English DD5 1] MSubs [Saransh] 1.5 GB

Torrent Description



Mowgli (2018) 720p WEB-DL Dual Audio ORG [Hindi DDP5.1 + English DD5.1] MSubs [Telegram @Movieznm]



Media Info:
Format                      : Matroska
Format version              : Version 4
File size                   : 1.54 GiB
Duration                    : 1 h 44 min
Overall bit rate            : 2 096 kb/s
Movie name                  : Mowgli (2018) 720p WEB-DL Dual Audio ORG [Hindi DDP5.1 + English DD5.1] MSubs ~ Saransh
Encoded date                : UTC 2018-12-07 13:01:36
Writing application         : mkvmerge v27.0.0 ('Metropolis') 64-bit
Writing library             : libebml v1.3.6 + libmatroska v1.4.9

Video
ID                          : 1
Format                      : AVC
Format/Info                 : Advanced Video Codec
Format profile              : [email protected]
Format settings             : CABAC / 4 Ref Frames
Format settings, CABAC      : Yes
Format settings, ReFrames   : 4 frames
Codec ID                    : V_MPEG4/ISO/AVC
Duration                    : 1 h 44 min
Bit rate                    : 1 088 kb/s
Width                       : 1 280 pixels
Height                      : 536 pixels
Display aspect ratio        : 2.40:1
Frame rate mode             : Constant
Frame rate                  : 23.976 (24000/1001) FPS
Color space                 : YUV
Chroma subsampling          : 4:2:0
Bit depth                   : 8 bits
Scan type                   : Progressive
Bits/(Pixel*Frame)          : 0.066
Stream size                 : 802 MiB (51%)
Title                       : Mowgli (2018) 720p WEB-DL Dual Audio ORG [Hindi DDP5.1 + English DD5.1] MSubs ~ Saransh
Writing library             : x264 core 155 r2901 7d0ff22
Encoding settings           : cabac=1 / ref=2 / deblock=1:0:0 / analyse=0x3:0x113 / me=hex / subme=6 / psy=1 / psy_rd=1.00:0.00 / mixed_ref=1 / me_range=16 / chroma_me=1 / trellis=1 / 8x8dct=1 / cqm=0 / deadzone=21,11 / fast_pskip=1 / chroma_qp_offset=-2 / threads=12 / lookahead_threads=2 / sliced_threads=0 / nr=0 / decimate=1 / interlaced=0 / bluray_compat=0 / constrained_intra=0 / bframes=3 / b_pyramid=2 / b_adapt=1 / b_bias=0 / direct=1 / weightb=1 / open_gop=0 / weightp=1 / keyint=240 / keyint_min=24 / scenecut=40 / intra_refresh=0 / rc_lookahead=30 / rc=abr / mbtree=1 / bitrate=1088 / ratetol=1.0 / qcomp=0.60 / qpmin=0 / qpmax=69 / qpstep=4 / vbv_maxrate=25000 / vbv_bufsize=25000 / nal_hrd=none / filler=0 / ip_ratio=1.40 / aq=1:1.00
Language                    : English
Default                     : Yes
Forced                      : No
Color range                 : Limited
Color primaries             : BT.709
Transfer characteristics    : BT.709
Matrix coefficients         : BT.709

Audio #1
ID                          : 2
Format                      : E-AC-3
Format/Info                 : Enhanced AC-3
Commercial name             : Dolby Digital Plus
Codec ID                    : A_EAC3
Duration                    : 1 h 44 min
Bit rate mode               : Constant
Bit rate                    : 640 kb/s
Channel(s)                  : 6 channels
Channel layout              : L R C LFE Ls Rs
Sampling rate               : 48.0 kHz
Frame rate                  : 31.250 FPS (1536 SPF)
Compression mode            : Lossy
Delay relative to video     : -21 ms
Stream size                 : 480 MiB (31%)
Title                       : Hindi DDP5.1 - t.me/Movieznm
Language                    : Hindi
Service kind                : Complete Main
Default                     : Yes
Forced                      : Yes

Audio #2
ID                          : 3
Format                      : AC-3
Format/Info                 : Audio Coding 3
Commercial name             : Dolby Digital
Codec ID                    : A_AC3
Duration                    : 1 h 44 min
Bit rate mode               : Constant
Bit rate                    : 384 kb/s
Channel(s)                  : 6 channels
Channel layout              : L R C LFE Ls Rs
Sampling rate               : 48.0 kHz
Frame rate                  : 31.250 FPS (1536 SPF)
Bit depth                   : 16 bits
Compression mode            : Lossy
Delay relative to video     : -21 ms
Stream size                 : 288 MiB (18%)
Title                       : ENG DD5.1 - t.me/Movieznm
Language                    : English
Service kind                : Complete Main
Default                     : No
Forced                      : No

Text #1
ID                          : 4
Format                      : UTF-8
Codec ID                    : S_TEXT/UTF8
Codec ID/Info               : UTF-8 Plain Text
Duration                    : 1 h 34 min
Bit rate                    : 24 b/s
Count of elements           : 706
Stream size                 : 17.1 KiB (0%)
Title                       : ESubs - t.me/Movieznm
Language                    : English
Default                     : Yes
Forced                      : Yes

Text #2
ID                          : 5
Format                      : UTF-8
Codec ID                    : S_TEXT/UTF8
Codec ID/Info               : UTF-8 Plain Text
Duration                    : 1 h 35 min
Bit rate                    : 61 b/s
Count of elements           : 690
Stream size                 : 43.2 KiB (0%)
Title                       : HSubs - t.me/Movieznm
Language                    : Hindi
Default                     : No
Forced                      : No


SCREENS





Related Torrents

torrent name size age seed leech
1.1 GB 58 seconds 635 277
365.3 MB 58 seconds 1 466
1.3 GB 4 minutes 434 338
1.1 GB 4 minutes 567 235
1.4 GB 4 minutes 120 341

Sharing Widget


Download torrent
1.5 GB
seeders:1214
leechers:386
Mowgli (2018) 720p NF WEB-DL Dual Audio ORG [Hindi DDP5 1 + English DD5 1] MSubs [Saransh]



To share this torrent use the code below and insert it into comments, status messages, forum posts or your signature.

Torrent: Mowgli (2018) 720p NF WEB-DL Dual Audio ORG [Hindi DDP5 1 + English DD5 1] MSubs [Saransh]

Comments

Latest Searches