MasterChef (UK) The Professionals S11E15 (1280x720p HD, 50fps, soft Eng subs) torrent download

seeders: 300
leechers: 352
updated:
Added ago by ElsonRoa ***** in TV
Torrent Downloaded 10 times.
Info Hash: FED3E9EE6AF20EAE8A147F48A6678177C83A936B


Torrent Files

MasterChef (UK) The Professionals S11E15 (1280x720p HD, 50fps, soft Eng subs) (Size: 2.2 GB)
  MasterChef (UK) The Professionals S11E15 (1280x720p HD, 50fps, soft Eng subs) 2.2 GB

Torrent Description



MasterChef (UK) The Professionals S11E15 (1280x720p HD, 50fps, soft Eng subs)

Knockout week continues on MasterChef: The Professionals. Chef Monica Galetti and Michelin-starred chef Marcus Wareing scrutinise the chefs every move in their bid to uncover the professional chef to crown culinary superstar of 2018.

Tonight, the second group of five chefs face two intense challenges set by Monica and Marcus. The chefs must cook together for the first time as a team to create an exceptional three-course, fine-dining menu at one of London's most prestigious addresses, The Royal College of Physicians. Celebrating their 500th anniversary, the meal must excel. The chefs have two and a half hours to collaborate as a team to design and cook their special menu, which will be served to the president Professor Dame Jane Dacre and her five VIP guests. The chefs' every move will be watched over by judges Monica and Marcus. Will their creative vision and talent shine through? Or will team playing prove to be their weakness?

With the team challenge behind them, the five chefs return to the MasterChef kitchen where they face the judges as individuals once again. Face to face again the chefs will battle it out for a place in the semi-finals by proving to judges Monica, Marcus and Gregg that they really are a cut above the others. With 90 minutes they must create their own unique dish to prove their talent and dedication to deliver at the highest level, and to take them through to the semi-finals. After tasting the dishes, Marcus, Monica and Gregg decide whose time in the MasterChef kitchen is up and which four chefs will move forward in the competition - one giant step close to being crowned MasterChef: The Professionals Champion 2018.

First broadcast: 6 December 2018
Duration: 1 hour

Torrent dead? Request reseed at 1337x.to or torrentgalaxy.org - or ask at elsonroa at tutanota.com



Media info:-
General
Format : MPEG-4
Format profile : Base Media
Codec ID : isom (isom/iso2/avc1/mp41)
File size : 2.22 GiB
Duration : 59mn 12s
Overall bit rate mode : Variable
Overall bit rate : 5 359 Kbps
Writing application : Lavf57.83.100

Video
ID : 1
Format : AVC
Format/Info : Advanced Video Codec
Format profile : [email protected]
Format settings, CABAC : Yes
Format settings, ReFrames : 4 frames
Codec ID : avc1
Codec ID/Info : Advanced Video Coding
Duration : 59mn 12s
Bit rate : 5 034 Kbps
Width : 1 280 pixels
Height : 720 pixels
Display aspect ratio : 16:9
Frame rate mode : Constant
Frame rate : 50.000 fps
Color space : YUV
Chroma subsampling : 4:2:0
Bit depth : 8 bits
Scan type : Progressive
Bits/(Pixel*Frame) : 0.109
Stream size : 2.08 GiB (94%)
Encoded date : UTC 1904-01-01 00:00:00
Tagged date : UTC 1904-01-01 00:00:00
Color range : Limited
Color primaries : BT.709
Transfer characteristics : BT.709
Matrix coefficients : BT.709

Audio
ID : 2
Format : AAC
Format/Info : Advanced Audio Codec
Format profile : LC
Codec ID : 40
Duration : 59mn 12s
Bit rate mode : Variable
Bit rate : 317 Kbps
Maximum bit rate : 322 Kbps
Channel(s) : 2 channels
Channel positions : Front: L R
Sampling rate : 48.0 KHz
Frame rate : 46.875 fps (1024 spf)
Compression mode : Lossy
Stream size : 134 MiB (6%)
Language : English



Related Torrents

torrent name size age seed leech
1.4 GB 56 seconds 769 476
810.5 MB 56 seconds 372 251
713.0 MB 56 seconds 453 432
15.62 MB 1 minute 609 245
704.0 MB 1 minute 624 107

Sharing Widget


Download torrent
2.2 GB
seeders:1214
leechers:386
MasterChef (UK) The Professionals S11E15 (1280x720p HD, 50fps, soft Eng subs)



To share this torrent use the code below and insert it into comments, status messages, forum posts or your signature.

Torrent: MasterChef (UK) The Professionals S11E15 (1280x720p HD, 50fps, soft Eng subs)

Comments

Latest Searches