Aquaman 2018 Movies HD Cam x264 Clean Audio New Source with Sample ☻rDX☻ torrent download

seeders: 404
leechers: 408
updated:
Added ago by nehalpuja ***** in Movies
Torrent Downloaded 10 times.
Info Hash: 87F96C8B2931168E561A5F5B2F00FD09C55942B8


Torrent Files

Aquaman 2018 Movies HD Cam x264 Clean Audio New Source with Sample ☻rDX☻ (Size: 709.0 MB)
  Aquaman 2018 Movies HD Cam x264 Clean Audio New Source with Sample ☻rDX☻ 709.0 MB

Torrent Description



Aquaman 2018 Movies HD Cam x264 Clean Audio New Source with Sample ☻rDX☻
===============================================================================================

SCREEN SHOTS:



or

http://iphonehosting.eu/2018/11/b/banking/1.html

File size : 704 MiB
Duration : 2 h 10 min
Overall bit rate mode : Constant
Overall bit rate : 751 kb/s
Movie name : Aquaman 2018 Movies HD Cam x264 Clean Audio New Source ☻rDX☻

Video
ID : 2
Format : AVC
Format/Info : Advanced Video Codec
Format profile : [email protected]
Format settings, CABAC : Yes
Format settings, ReFrames : 2 frames
Format settings, GOP : M=1, N=12
Codec ID : V_MPEG4/ISO/AVC
Duration : 2 h 10 min
Bit rate mode : Constant
Bit rate : 688 kb/s
Width : 700 pixels
Height : 274 pixels
Display aspect ratio : 2.555
Frame rate mode : Constant
Frame rate : 23.976 (24000/1001) FPS
Color space : YUV
Chroma subsampling : 4:2:0
Bit depth : 8 bits
Scan type : Progressive
Bits/(Pixel*Frame) : 0.150
Stream size : 630 MiB (89%)
Title : ☻rDX☻
Default : Yes
Forced : No

Audio
ID : 1
Format : AC-3
Format/Info : Audio Coding 3
Mode extension : CM (complete main)
Format settings, Endianness : Big
Codec ID : A_AC3
Duration : 2 h 10 min
Bit rate mode : Constant
Bit rate : 64.0 kb/s
Channel(s) : 2 channels
Channel positions : Front: L R
Sampling rate : 44.1 kHz
Frame rate : 28.711 FPS (1536 spf)
Bit depth : 16 bits
Compression mode : Lossy
Stream size : 59.9 MiB (9%)
Title : ☻rDX☻
Default : Yes
Forced : No

http://www.imdb.com/title/tt1477834



Related Torrents

torrent name size age seed leech
215.6 MB 4 minutes 367 21
4.0 GB 4 minutes 513 416
952.1 MB 4 minutes 535 466
1.3 GB 16 minutes 314 33
472.0 MB 16 minutes 75 343

Sharing Widget


Download torrent
709.0 MB
seeders:1214
leechers:386
Aquaman 2018 Movies HD Cam x264 Clean Audio New Source with Sample ☻rDX☻



To share this torrent use the code below and insert it into comments, status messages, forum posts or your signature.

Torrent: Aquaman 2018 Movies HD Cam x264 Clean Audio New Source with Sample ☻rDX☻

Comments

Latest Searches